Forums Frontpage MorrisVideos *VIP* Register FAQ Members List Calendar Mark Forums Read

Go Back   ThatHustle.com > Downloads > Movies Docs & TV Shows > Movies

Movies Movie Downloads here.


Reply
 
Share LinkBack Thread Tools Display Modes
  #1  
Old 03-19-2012
Senior Member
 
Join Date: Jan 2012
Posts: 1,909
Rep Power: 5 TechPro started hustlin

Default The Orphan Killer (2011) BRRip

The Orphan Killer (2011) BRRip XviD AC3-PRESTiGE[/b][/font][/size][/color]

File Size: 1.51 GiB


========
Quote:
General
Complete name: prestige-the.orphan.killer.2011.brrip.xvid.avi
Format : AVI
Format/Info: Audio Video Interleave
File size: 1.51 GiB
Duration : 1h 22mn
Overall bit rate : 2 613 Kbps

Video
ID : 0
Format : MPEG-4 Visual
Format profile : Advanced Simple@L5
Format settings, BVOP: 2
Format settings, QPel: No
Format settings, GMC : No warppoints
Format settings, Matrix: Default (H.263)
Codec ID : XVID
Codec ID/Hint: XviD
Duration : 1h 22mn
Bit rate : 2 157 Kbps
Width: 720 pixels
Height : 304 pixels
Display aspect ratio : 2.35:1
Frame rate : 23.976 fps
Color space: YUV
Chroma subsampling : 4:2:0
Bit depth: 8 bits
Scan type: Progressive
Compression mode : Lossy
Bits/(Pixel*Frame) : 0.411
Stream size: 1.24 GiB (83%)
Writing library: XviD 1.2.1 (UTC 2008-12-04)

Audio
ID : 1
Format : AC-3
Format/Info: Audio Coding 3
Mode extension : CM (complete main)
Codec ID : 2000
Duration : 1h 22mn
Bit rate mode: Constant
Bit rate : 448 Kbps
Channel(s) : 6 channels
Channel positions: Front: L C R, Side: L R, LFE
Sampling rate: 48.0 KHz
Bit depth: 16 bits
Compression mode : Lossy
Stream size: 265 MiB (17%)
Alignment: Aligned on interleaves
Interleave, duration : 64 ms (1.53 video frames)
Interleave, preload duration : 192 ms
Code:
http://imdb.com/title/tt1179071/




DOWNLOAD:
Code:
http://www.filefactory.com/file/c414182/n/the.orphan.killer.cW.part1.rar
http://www.filefactory.com/file/c414181/n/the.orphan.killer.cW.part2.rar
http://www.filefactory.com/file/c4156d6/n/the.orphan.killer.cW.part3.rar
http://www.filefactory.com/file/c4156a9/n/the.orphan.killer.cW.part4.rar


http://www.netload.in/dateiKZUzcAUI28/the.orphan.killer.cW.part1.rar.htm
http://www.netload.in/dateiXv5LBrpEPi/the.orphan.killer.cW.part2.rar.htm
http://www.netload.in/dateiShGrItW4RD/the.orphan.killer.cW.part3.rar.htm
http://www.netload.in/dateiTw5Imocys2/the.orphan.killer.cW.part4.rar.htm

http://www.share-online.biz/dl/6PO8U41MXZ
http://www.share-online.biz/dl/L7M8U41M0NW3
http://www.share-online.biz/dl/UZL8U41M32Y
http://www.share-online.biz/dl/6MM8U41MK33

http://www.rapidgator.net/file/890874/the.orphan.killer.cW.part1.rar.html
http://www.rapidgator.net/file/891917/the.orphan.killer.cW.part2.rar.html
http://www.rapidgator.net/file/890887/the.orphan.killer.cW.part3.rar.html
http://www.rapidgator.net/file/890828/the.orphan.killer.cW.part4.rar.html
Digg this Post!Add Post to del.icio.usBookmark Post in TechnoratiFurl this Post!
Reply With Quote
Reply

Bookmarks


Currently Active Users Viewing This Thread: 1 (0 members and 1 guests)
 
Thread Tools
Display Modes

Posting Rules
You may not post new threads
You may not post replies
You may not post attachments
You may not edit your posts

BB code is On
Smilies are On
[IMG] code is On
HTML code is On
Trackbacks are On
Pingbacks are On
Refbacks are On

Similar Threads
Thread Thread Starter Forum Replies Last Post
The Orphan Killer (2011) BRRip whoroc996 Movies 0 11-23-2011 01:38 PM
The Orphan Killer (2011) jamshad55 Movies 0 09-27-2011 07:36 AM
The Orphan Killer 2011 salau24 Movies 0 07-06-2011 09:57 AM
The Orphan Killer [2011] milooot Movies 0 07-04-2011 02:13 PM
The Orphan Killer 2011 darkhost Movies 0 07-02-2011 10:48 AM

All times are GMT -4. The time now is 01:34 PM.

  Contact Us - ThatHustle - Archive - Top

Search Engine Optimization by vBSEO 3.5.1