Forums Frontpage MorrisVideos *VIP* Register FAQ Members List Calendar Mark Forums Read

Go Back   ThatHustle.com > Downloads > Movies Docs & TV Shows > Movies

Movies Movie Downloads here.


Reply
 
Share LinkBack Thread Tools Display Modes
  #1  
Old 05-25-2012
Banned
 
Join Date: May 2012
Posts: 3,336
Rep Power: 0 warez6886 started hustlin

Default Stash House 2012 VODRiP AC3-5.1 XviD-AXED


Stash House 2012 VODRiP AC3-5 1 XviD-AXED | 1.37 GB

IMDB:
http://www.imdb.com/title/tt1919090/
PLOT INFO:
Dave and Emma have found the perfect house, until they discover a stash of heroine and end up imprisoned in it by violent thugs.
MEDIAINFO:
General
Complete name : Stash.House.2012.VODRiP.AC3-5.1.XviD-AXED.avi
Format : AVI
Format/Info : Audio Video Interleave
File size : 1.36 GiB
Duration : 1h 39mn
Overall bit rate : 1 959 Kbps
Video
ID : 0
Format : MPEG-4 Visual
Format profile : Advanced Simple@L5
Format settings, BVOP : 2
Format settings, QPel : No
Format settings, GMC : No warppoints
Format settings, Matrix : Default (H.263)
Muxing mode : Packed bitstream
Duration : 1h 39mn
Bit rate : 1 567 Kbps
Width : 720 pixels
Height : 400 pixels
Display aspect ratio : 16:9
Frame rate : 23.976 fps
Color space : YUV
Chroma subsampling : 4:2:0
Bit depth : 8 bits
Scan type : Progressive
Compression mode : Lossy
Bits/(Pixel*Frame) : 0.227
Stream size : 1.09 GiB (80%)
Writing library : XviD 1.1.2 (UTC 2006-11-01)
Audio
ID : 1
Format : AC-3
Format/Info : Audio Coding 3
Mode extension : CM (complete main)
Duration : 1h 39mn
Bit rate mode : Constant
Bit rate : 384 Kbps
Channel(s) : 6 channels
Channel positions : Front: L C R, Side: L R, LFE
Sampling rate : 48.0 KHz
Bit depth : 16 bits
Compression mode : Lossy
Stream size : 273 MiB (20%)
Alignment : Aligned on interleaves
Interleave, duration : 64 ms (1.53 video frames)
Interleave, preload duration : 192 ms
Title : stashhouse
SOURCE:
SD wmv Digital VOD Rental
NOTES:
The new film starring Dolph Lundgren, from the After Dark Action Lineup that hit Limited Theatres & VOD on friday!

Digg this Post!Add Post to del.icio.usBookmark Post in TechnoratiFurl this Post!
Reply With Quote
Reply

Bookmarks


Currently Active Users Viewing This Thread: 1 (0 members and 1 guests)
 
Thread Tools
Display Modes

Posting Rules
You may not post new threads
You may not post replies
You may not post attachments
You may not edit your posts

BB code is On
Smilies are On
[IMG] code is On
HTML code is On
Trackbacks are On
Pingbacks are On
Refbacks are On

Similar Threads
Thread Thread Starter Forum Replies Last Post
Stash House 2012 VODRiP AC3-5 1 XviD-AXED' rayman000 Movies 0 05-22-2012 04:30 PM
Stash House (2012) VODRiP AC3 XviD-AXED Matijasevic Movies 0 05-18-2012 11:47 AM
Stash House (2012) VODRiP AC3-5.1 XviD-AXED tehbuzzer Movies 0 05-16-2012 12:58 AM
Stash House (2012) VODRiP AC3 XviD-AXED Matijasevic Movies 0 05-15-2012 05:44 PM
Stash House (2012) - VODRip - XviD - AC3 5.1 [AXED] BollyCorner Movies 0 05-13-2012 09:33 AM

All times are GMT -4. The time now is 01:39 AM.

  Contact Us - ThatHustle - Archive - Top

Search Engine Optimization by vBSEO 3.5.1