Forums Frontpage MorrisVideos *VIP* Register FAQ Members List Calendar Mark Forums Read

Go Back   ThatHustle.com > Downloads > Movies Docs & TV Shows > TV Shows

TV Shows TV Show Downloads here.

Reply
 
Share LinkBack Thread Tools Display Modes
  #1  
Old 04-27-2012
Senior Member
 
Join Date: Oct 2011
Posts: 1,559
Rep Power: 5 tintin93 started hustlin

Default Awake S01E09 720p WEB-DL DD5 1 H 264-CtrlHD




Quote:
General
Complete name : PathRemoved/Awake.S01E09.720p.HDTV.X264-DIMENSION.mkv
Format : Matroska
File size : 965 MiB
Duration : 42mn 58s
Overall bit rate : 3 141 Kbps
Encoded date : UTC 2012-04-26 15:33:58
Writing application : mkvmerge v3.0.0 ('Hang up your Hang-Ups') built on Apr 19 2010 11:58:49
Writing library : libebml v0.7.7 libmatroska v0.8.1


Video
ID : 1
Format : AVC
Format/Info : Advanced Video Codec
Format profile : High@L4.1
Format settings, CABAC : Yes
Format settings, ReFrames : 9 frames
Format settings, GOP : M=6, N=31
Muxing mode : Container profile=Unknown@4.1
Codec ID : V_MPEG4/ISO/AVC
Duration : 42mn 58s
Bit rate : 2 631 Kbps
Width : 1 280 pixels
Height : 720 pixels
Display aspect ratio : 16:9
Frame rate : 23.976 fps
Color space : YUV
Chroma subsampling : 4:2:0
Bit depth : 8 bits
Scan type : Progressive
Bits/(Pixel*Frame) : 0.119
Stream size : 808 MiB (84%)
Writing library : x264 core 124 r2197 69a0443
Encoding settings : cabac=1 / ref=9 / deblock=1:1:1 / analyse=0x3:0x133 / me=umh / subme=10 / psy=1 / psy_rd=1.00:0.00 / mixed_ref=1 / me_range=24 / chroma_me=1 / trellis=2 / 8x8dct=1 / cqm=0 / deadzone=21,11 / fast_pskip=0 / chroma_qp_offset=-2 / threads=16 / sliced_threads=0 / nr=0 / decimate=1 / interlaced=0 / bluray_compat=0 / constrained_intra=0 / bframes=5 / b_pyramid=2 / b_adapt=2 / b_bias=0 / direct=3 / weightb=1 / open_gop=0 / weightp=2 / keyint=250 / keyint_min=23 / scenecut=40 / intra_refresh=0 / rc_lookahead=60 / rc=crf / mbtree=1 / crf=18.0 / qcomp=0.60 / qpmin=0 / qpmax=69 / qpstep=4 / ip_ratio=1.40 / aq=1:1.00
Language : English
Matrix coefficients : BT.709-5, BT.1361, IEC 61966-2-4 709, SMPTE RP177


Audio
ID : 2
Format : AC-3
Format/Info : Audio Coding 3
Mode extension : CM (complete main)
Codec ID : A_AC3
Duration : 42mn 58s
Bit rate mode : Constant
Bit rate : 448 Kbps
Channel(s) : 6 channels
Channel positions : Front: L C R, Side: L R, LFE
Sampling rate : 48.0 KHz
Stream size : 138 MiB (14%)

Please have a try on RyuShare.com!
Code:
http://ryushare.com/ly464swglypd/Awake.S01E09.Game.Day.720p.WEB-DL.DD5.1.H.264-CtrlHD.mkv


http://netload.in/dateippebMs9JeR/Awake.S01E09.Game.Day.720p.WEB-DL.DD5.1.H.264-CtrlHD.mkv.htm
Digg this Post!Add Post to del.icio.usBookmark Post in TechnoratiFurl this Post!
Reply With Quote
Reply

Bookmarks


Currently Active Users Viewing This Thread: 1 (0 members and 1 guests)
 
Thread Tools
Display Modes

Posting Rules
You may not post new threads
You may not post replies
You may not post attachments
You may not edit your posts

BB code is On
Smilies are On
[IMG] code is On
HTML code is On
Trackbacks are On
Pingbacks are On
Refbacks are On

Similar Threads
Thread Thread Starter Forum Replies Last Post
Awake S01E09 720p HDTV X264-DIMENSION tintin93 TV Shows 0 04-27-2012 02:59 AM
Awake S01E09 720p HDTV X264-DIMENSION steiner97 TV Shows 0 04-27-2012 02:16 AM
[NL/UL/RS]Awake.S01E06.Thats.Not.My.Penguin.720p.WEB-DL.DD5.1.H.264-CtrlHD tintin93 TV Shows 0 04-06-2012 03:57 PM
Awake | S01E02 | 720p | WEB-DL | CtrlHD Netwolf_ TV Shows 0 03-11-2012 07:41 AM
Awake | S01E01 | Pilot | 720p | WEB-DL | DD5.1 | CtrlHD Netwolf_ TV Shows 0 02-18-2012 01:55 AM

All times are GMT -4. The time now is 09:49 PM.

  Contact Us - ThatHustle - Archive - Top

Search Engine Optimization by vBSEO 3.5.1